#TITLE:Soul Bossa Nova;
#SUBTITLE:(KCP Re-Edit);
#ARTIST:X-Treme;
#TITLETRANSLIT:;
#SUBTITLETRANSLIT:;
#ARTISTTRANSLIT:;
#CREDIT:;
#BANNER:;
#BACKGROUND:;
#LYRICSPATH:;
#CDTITLE:;
#MUSIC:Soul Bossa Nova.mp3;
#MUSICLENGTH:99.456;
#OFFSET:-0.580;
#SAMPLESTART:11.305;
#SAMPLELENGTH:12.000;
#SELECTABLE:YES;
#BPMS:0.000=170.000;
#STOPS:;
#BGCHANGES:;
#FIRSTBEAT:22.500;

#LASTBEAT:279.000;

#SONGFILENAME:Songs/ERICth The 3rd/Soul Bossa Nova/Soul Bossa.sm;

#HASMUSIC:1;

#HASBANNER:0;


//---------------dance-single - MANIAC----------------
#NOTES:
     dance-single:
     MANIAC:
     hard:
     6:
     0.576,0.631,0.191,0.141,0.040,368.000,19.000,14.000,0.000,0.000:

0000
0000
0000
0000
,
0000
0000
0000
0000
,
0000
0000
0000
0000
,
0000
0000
0000
0000
,
0000
0000
0000
0000
,
0000
0000
0000
0000
0000
0100
0010
0100
,
1000
0100
0000
0000
0000
0100
0010
0100
,
0001
0100
0000
0000
0000
1000
0001
0010
,
0001
1000
0000
0000
0000
0001
1000
0010
,
1000
0001
0000
0000
0000
0010
1000
0010
,
0001
0010
0000
0000
0000
0010
0001
0010
,
1000
0010
0000
0000
0000
0100
0001
0100
,
1000
0100
0000
0000
0000
0100
1000
0100
,
0001
0000
0100
0000
1000
0000
0000
0000
1000
0001
1000
0000
1000
0000
1000
0000
,
0100
0010
0100
1000
0000
1000
0010
0100
,
0010
0100
0001
0010
0000
0010
0001
1000
,
0100
0010
0001
0100
0000
0100
0010
0100
,
0001
0100
1000
0100
0000
0100
0010
1000
,
0100
0010
0100
1000
0000
1000
0001
0010
,
0001
0010
0001
0100
0000
0100
0001
0010
,
0001
1000
0100
1000
0000
1000
0010
1000
,
0010
0100
0001
0100
0000
0100
0101
0000
,
2000
0200
0000
0000
0000
0000
3300
0000
,
1001
0000
1000
0100
1000
0100
0010
0100
,
2000
0002
0000
0000
0000
0000
3003
0000
,
0011
0000
0001
0100
0010
0001
0010
0100
,
0002
0200
0000
0000
0000
0000
0303
0000
,
1100
0000
0011
0010
0000
0010
0000
0000
,
1000
0100
0000
0000
0100
0010
0000
0000
0010
0001
0000
0000
0001
0000
0001
0000
,
0000
2000
0010
3010
,
0100
0010
0001
0000
1000
1000
0000
1000
,
0010
0100
0001
0000
0100
0100
0000
0100
,
0001
1000
0010
0000
0001
0001
0000
1000
,
0010
1000
0100
0000
0001
0001
0000
0010
,
0100
0010
0100
0000
1000
1000
0000
0100
,
0010
0100
0010
0000
0010
0010
0000
0001
,
1000
0100
0010
0000
0010
0001
0010
0000
,
1001
0011
1001
1010
,
1000
0100
1000
0100
1000
0100
1000
0100
,
1000
0100
1000
0100
1000
0100
1000
0100
,
0010
0001
0010
0001
0010
0001
0010
0001
,
0010
0001
0010
0001
0010
0001
0010
0001
,
1000
0001
1000
0001
1000
0001
1000
0001
,
1000
0001
1000
0001
1000
0001
1000
0001
,
1001
0000
1001
0000
,
1001
1001
1001
0000
,
1000
0100
0000
0000
0000
0100
0010
0100
,
0001
0100
0000
0000
0000
1000
0001
0010
,
0001
1000
0000
0000
0000
0001
1000
0010
,
1000
0001
0000
0000
0000
0010
1000
0010
,
0001
0010
0000
0000
0000
0010
0001
0010
,
1000
0010
0000
0000
0000
0100
0001
0100
,
1000
0100
0000
0000
0000
0100
1000
0100
,
0001
0000
0100
0000
1000
0000
0000
0000
1000
0001
1000
0000
1000
0000
1000
0000
,
0100
0010
0100
1000
0000
1000
0010
0100
,
0010
0100
0001
0010
0000
0010
0001
1000
,
0100
0010
0001
0100
0000
0100
0010
0100
,
0001
0100
1000
0100
0000
0100
0010
1000
,
0100
0010
0100
1000
0000
1000
0001
0010
,
0001
0010
0001
0100
0000
0100
0001
0010
,
0001
1000
0100
1000
0000
1000
0010
1000
,
0010
0100
0001
0100
0000
0100
0101
0000
,
2000
0200
0000
0000
0000
0000
3300
0000
,
1001
0000
1000
0100
1000
0100
0010
0100
,
2000
0002
0000
0000
0000
0000
3003
0000
,
0011
0000
0001
0100
0010
0001
0010
0100
,
0002
0200
0000
0000
0000
0000
0303
0000
,
1100
0000
0011
0010
0000
0010
0000
0000
,
1000
0100
0000
0000
0100
0010
0000
0000
0010
0001
0000
0000
0001
0000
0001
0000
,
0000
2000
0010
3010;

//---------------dance-single - ANOTHER----------------
#NOTES:
     dance-single:
     ANOTHER:
     medium:
     3:
     0.389,0.421,0.070,0.010,0.000,263.000,7.000,1.000,0.000,0.000:

0000
0000
0000
0000
,
0000
0000
0000
0000
,
0000
0000
0000
0000
,
0000
0000
0000
0000
,
0000
0000
0000
0000
,
0000
0000
0000
0000
,
0010
0100
0000
0000
0000
0001
1000
0000
,
0010
0100
0000
0000
0000
0001
1000
0000
,
0100
0010
0000
0000
0000
0010
1000
0000
,
0001
0100
0000
0000
0000
1000
0100
0000
,
0010
0001
0000
0000
0000
0010
1000
0000
,
0100
0001
0000
0000
0000
0100
1000
0000
,
0010
0100
0000
0000
0000
0001
1000
0000
,
0100
0010
0000
0000
0001
0000
1000
0000
,
0100
1000
0010
1000
,
0001
0010
0001
0010
0001
0000
1000
0000
,
0010
0000
0100
0000
0001
0000
1000
0010
,
1000
0010
1000
0000
0001
0000
0010
0000
,
0100
0000
1000
0000
0010
0000
1000
0001
,
0010
0001
1000
0000
0010
0000
0100
0010
,
1000
0001
0010
0000
0001
0000
1000
0010
,
1000
0001
0000
0000
0001
0000
1000
0000
,
0010
1000
0001
0010
,
0100
0000
0010
0000
0001
0000
1000
0010
,
1000
0001
0010
0000
0001
0000
1000
0000
,
0010
0000
0100
0001
0000
0001
1000
0000
,
0010
1000
0001
0010
,
0100
1000
0010
1000
0000
0001
0000
0001
,
1000
0000
0010
0000
1000
0000
0100
0010
,
0000
0000
0000
0000
,
1001
0010
1000
0001
,
0010
0000
0100
0000
1000
0000
0010
1000
,
0001
0100
0010
1000
,
0001
0001
0001
0010
,
0100
1000
0010
0100
,
0001
0000
1000
0100
1000
0100
1000
0000
,
0010
0100
0010
0001
,
1001
0000
0000
0000
,
1001
0010
1000
0100
,
0010
0001
1000
1010
,
0101
0010
1000
0100
,
0001
0001
1000
1000
,
0010
0010
0000
0001
,
1000
1000
0000
1000
,
0001
0001
0100
0000
,
0010
0100
0010
0100
,
0010
0001
1000
0100
,
0010
0001
1000
0010
,
0100
0010
1000
0001
,
0010
0001
1000
0001
,
1000
0010
0100
0001
,
1000
0010
0010
1000
,
0001
0100
0010
1000
,
0100
0010
0001
0001
,
1000
0100
0000
0000
0000
0001
0010
0000
,
0100
1000
0000
0000
0000
0001
0010
0000
,
0100
1000
0000
0000
0000
0010
0001
0000
,
0100
1000
0000
0000
0000
0010
0100
0000
,
0010
0001
0000
0000
0000
0100
1000
0000
,
0010
0001
0000
0000
0000
0100
1000
0000
,
0010
0100
0000
0000
0000
0001
1000
0000
,
0010
0100
0000
0000
0000
0000
0000
0000
,
1000
0001
0010
0100
,
1000
0000
0001
0000
1000
0000
0100
1000
,
0100
0010
0001
0010
,
0001
0000
1000
0000
0010
0000
0100
0010
,
0100
0001
1000
0100
,
0010
0000
0001
0000
1000
0001
1000
0000
,
0001
1000
0001
1001
,
1001
0200
0000
0300;

//---------------dance-single - BASIC----------------
#NOTES:
     dance-single:
     BASIC:
     easy:
     1:
     0.118,0.245,0.111,0.131,0.000,58.000,11.000,13.000,0.000,0.000:

0000
0000
0000
0000
,
0000
0000
0000
0000
,
0000
0000
0000
0000
,
0000
0000
0000
0000
,
0000
0000
0000
0000
,
0000
0000
0000
0000
,
0010
0000
0000
0000
,
0010
0000
0000
0000
,
0010
0000
0000
0000
,
0010
0000
0000
0000
,
0100
0000
0000
0000
,
0100
0000
0000
0000
,
0100
0000
0000
0000
,
0100
0000
0000
0000
,
0001
0000
0000
0000
,
0001
0000
0000
0000
,
0001
0000
0000
0000
,
0001
0000
0000
0000
,
1000
0000
0000
0000
,
1000
0000
0000
0000
,
1000
0000
0000
0000
,
1000
0000
0000
0000
,
0220
0000
0000
0000
,
0000
0000
0000
0330
,
2002
0000
0000
0000
,
0000
0000
0000
3003
,
2020
0000
0000
0000
,
0000
0000
0000
3030
,
0101
0000
0101
0000
,
0101
0000
0000
0000
,
1000
0000
0000
0000
,
1000
0000
0000
0000
,
0001
0000
0000
0000
,
0001
0000
0000
0000
,
0010
0000
0000
0000
,
0110
0000
0000
0000
,
0100
0000
0000
0000
,
0110
0000
0000
0000
,
1000
0000
0000
0000
,
1000
0000
0000
0000
,
1000
0000
0000
0000
,
1000
0000
0000
0000
,
0001
0000
0000
0000
,
0001
0000
0000
0000
,
0001
0000
0000
0000
,
0001
0000
0000
0000
,
0010
0000
0000
0000
,
0100
0000
0000
0000
,
0010
0000
0000
0000
,
0100
0000
0000
0000
,
0001
0000
0000
0000
,
1000
0000
0000
0000
,
0001
0000
0000
0000
,
1000
0000
0000
0000
,
0100
0000
0000
0000
,
0010
0000
0000
0000
,
0100
0000
0000
0000
,
0010
0000
0000
0000
,
1000
0000
0000
0000
,
0001
0000
0000
0000
,
1000
0000
0000
0000
,
0001
0000
0000
0000
,
2002
0000
0000
0000
,
0000
0000
0000
3003
,
0202
0000
0000
0000
,
0000
0000
0000
0303
,
2020
0000
0000
0000
,
0000
0000
0000
3030
,
0200
0000
0000
0000
,
0000
0000
0000
0300;
